Login | Register For Free | Help
Search for: (Advanced)

Mailing List Archive: MythTV: Users

MythTV 0.24-1.80 - No sound on HD TV recording

 

 

MythTV users RSS feed   Index | Next | Previous | View Threaded


pjrobinson at metronet

Apr 23, 2012, 11:51 AM

Post #1 of 14 (1792 views)
Permalink
MythTV 0.24-1.80 - No sound on HD TV recording

I recorded 'The Italian Job' from ITV HD the other day and when I play
it there's sound from the TV broadcast prior to the movie but as soon as
it starts there's no sound what so ever. This despite my AV amp
(connected to the mythbox by HDMI) showing it's receiving 5.1 sound but
no sound out of the speakers. All other HD TV recordings playback sound
in the appropriate number of channels. Any thoughts as to what's gone
wrong? Setting or un-setting Dolby, DTS etc in mythfrontend makes no
difference. The TV decoder is a PC nano Stick 290e which has worked
without fault.
_______________________________________________
mythtv-users mailing list
mythtv-users [at] mythtv
http://www.mythtv.org/mailman/listinfo/mythtv-users


J.Pilk at tesco

Apr 23, 2012, 2:07 PM

Post #2 of 14 (1725 views)
Permalink
Re: MythTV 0.24-1.80 - No sound on HD TV recording [In reply to]

On 23/04/12 19:51, PJR wrote:
> I recorded 'The Italian Job' from ITV HD the other day and when I play
> it there's sound from the TV broadcast prior to the movie but as soon as
> it starts there's no sound what so ever. This despite my AV amp
> (connected to the mythbox by HDMI) showing it's receiving 5.1 sound but
> no sound out of the speakers. All other HD TV recordings playback sound
> in the appropriate number of channels. Any thoughts as to what's gone
> wrong? Setting or un-setting Dolby, DTS etc in mythfrontend makes no
> difference. The TV decoder is a PC nano Stick 290e which has worked
> without fault.

vlc hung up when asked to play my recording but was fine after I chopped
off the beginning. There isn't any sound anyway until the initial pan
down gets to the viaduct.

ffmpeg -i on the chopped file says:
Stream #0:0[0x12d]: Video: h264 (High) ([27][0][0][0] / 0x001B),
yuv420p, 1440x1080 [SAR 4:3 DAR 16:9], 29.17 fps, 50 tbr, 90k tbn, 50 tbc
Stream #0:1[0x12e](eng): Audio: aac_latm ([17][0][0][0] / 0x0011),
48000 Hz, 5.1, s16
Stream #0:2[0x132](eng): Audio: aac_latm ([17][0][0][0] / 0x0011),
48000 Hz, 2 channels (FC), s16 (visual impaired)
Stream #0:3[0x131](eng): Subtitle: dvb_subtitle ([6][0][0][0] / 0x0006)



_______________________________________________
mythtv-users mailing list
mythtv-users [at] mythtv
http://www.mythtv.org/mailman/listinfo/mythtv-users


jyavenard at gmail

Apr 23, 2012, 8:37 PM

Post #3 of 14 (1721 views)
Permalink
Re: MythTV 0.24-1.80 - No sound on HD TV recording [In reply to]

On 24 April 2012 04:51, PJR <pjrobinson [at] metronet> wrote:
> I recorded 'The Italian Job' from ITV HD the other day and when I play
> it there's sound from the TV broadcast prior to the movie but as soon as
> it starts there's no sound what so ever. This despite my AV amp
> (connected to the mythbox by HDMI) showing it's receiving 5.1 sound but
> no sound out of the speakers.  All other HD TV recordings playback sound
> in the appropriate number of channels.  Any thoughts as to what's gone
> wrong?   Setting or un-setting Dolby, DTS etc in mythfrontend makes no
> difference. The TV decoder is a PC nano Stick 290e which has worked
> without fault.

Upgrade your copy of mythtv.
Somes fixes for AAC audio went in since your copy was made.

More updates are in fixes/0.25 too that fixes all known AAC issues
_______________________________________________
mythtv-users mailing list
mythtv-users [at] mythtv
http://www.mythtv.org/mailman/listinfo/mythtv-users


pjrobinson at metronet

Apr 25, 2012, 6:33 AM

Post #4 of 14 (1708 views)
Permalink
Re: MythTV 0.24-1.80 - No sound on HD TV recording [In reply to]

On 23/04/12 22:07, John Pilkington wrote:
> On 23/04/12 19:51, PJR wrote:
>> I recorded 'The Italian Job' from ITV HD the other day and when I play
>> it there's sound from the TV broadcast prior to the movie but as soon as
>> it starts there's no sound what so ever. This despite my AV amp
>> (connected to the mythbox by HDMI) showing it's receiving 5.1 sound but
>> no sound out of the speakers. All other HD TV recordings playback sound
>> in the appropriate number of channels. Any thoughts as to what's gone
>> wrong? Setting or un-setting Dolby, DTS etc in mythfrontend makes no
>> difference. The TV decoder is a PC nano Stick 290e which has worked
>> without fault.
>
> vlc hung up when asked to play my recording but was fine after I
> chopped off the beginning. There isn't any sound anyway until the
> initial pan down gets to the viaduct.
>
> ffmpeg -i on the chopped file says:
> Stream #0:0[0x12d]: Video: h264 (High) ([27][0][0][0] / 0x001B),
> yuv420p, 1440x1080 [SAR 4:3 DAR 16:9], 29.17 fps, 50 tbr, 90k tbn, 50 tbc
> Stream #0:1[0x12e](eng): Audio: aac_latm ([17][0][0][0] / 0x0011),
> 48000 Hz, 5.1, s16
> Stream #0:2[0x132](eng): Audio: aac_latm ([17][0][0][0] / 0x0011),
> 48000 Hz, 2 channels (FC), s16 (visual impaired)
> Stream #0:3[0x131](eng): Subtitle: dvb_subtitle ([6][0][0][0] /
> 0x0006)
>
>
>
> _______________________________________________
> mythtv-users mailing list
> mythtv-users [at] mythtv
> http://www.mythtv.org/mailman/listinfo/mythtv-users
>
What did you use to chop off the beginning of the file? I don't want to
upgrade to 0.25 just yet; there seems a lot of issues with it and it's
taken me some time to get 0.24 working on my h/w setup. Is there a
backport of the AAC audio updates to 0.24 or some such?
_______________________________________________
mythtv-users mailing list
mythtv-users [at] mythtv
http://www.mythtv.org/mailman/listinfo/mythtv-users


pjrobinson at metronet

Apr 25, 2012, 7:14 AM

Post #5 of 14 (1712 views)
Permalink
Re: MythTV 0.24-1.80 - No sound on HD TV recording [In reply to]

>
> On 23/04/12 22:07, John Pilkington wrote:
>> On 23/04/12 19:51, PJR wrote:
>>> I recorded 'The Italian Job' from ITV HD the other day and when I play
>>> it there's sound from the TV broadcast prior to the movie but as soon as
>>> it starts there's no sound what so ever. This despite my AV amp
>>> (connected to the mythbox by HDMI) showing it's receiving 5.1 sound but
>>> no sound out of the speakers. All other HD TV recordings playback sound
>>> in the appropriate number of channels. Any thoughts as to what's gone
>>> wrong? Setting or un-setting Dolby, DTS etc in mythfrontend makes no
>>> difference. The TV decoder is a PC nano Stick 290e which has worked
>>> without fault.
>> vlc hung up when asked to play my recording but was fine after I
>> chopped off the beginning. There isn't any sound anyway until the
>> initial pan down gets to the viaduct.
>>
>> ffmpeg -i on the chopped file says:
>> Stream #0:0[0x12d]: Video: h264 (High) ([27][0][0][0] / 0x001B),
>> yuv420p, 1440x1080 [SAR 4:3 DAR 16:9], 29.17 fps, 50 tbr, 90k tbn, 50 tbc
>> Stream #0:1[0x12e](eng): Audio: aac_latm ([17][0][0][0] / 0x0011),
>> 48000 Hz, 5.1, s16
>> Stream #0:2[0x132](eng): Audio: aac_latm ([17][0][0][0] / 0x0011),
>> 48000 Hz, 2 channels (FC), s16 (visual impaired)
>> Stream #0:3[0x131](eng): Subtitle: dvb_subtitle ([6][0][0][0] /
>> 0x0006)
>>
>>
>>
>> _______________________________________________
>> mythtv-users mailing list
>> mythtv-users [at] mythtv
>> http://www.mythtv.org/mailman/listinfo/mythtv-users
>>
> What did you use to chop off the beginning of the file? I don't want to
> upgrade to 0.25 just yet; there seems a lot of issues with it and it's
> taken me some time to get 0.24 working on my h/w setup. Is there a
> backport of the AAC audio updates to 0.24 or some such?
> _______________________________________________
> mythtv-users mailing list
> mythtv-users [at] mythtv
> http://www.mythtv.org/mailman/listinfo/mythtv-users
>
Attached is a snip of the mythtvfrontend log which looks like the
problem. Log is around the time of playing back the recorded
programme. The problem looks around the time between 2012-04-25
14:51:39.329 and 2012-04-25 14:52:14.224.

This looks about the time the audio on the play-in from the recording is
ok and when the movie starts the audio stops.

2012-04-25 14:51:39.161 TV: Changing from None to WatchingPreRecorded
2012-04-25 14:51:39.311 ScreenSaverX11Private: DPMS Deactivated 1
2012-04-25 14:51:39.329 VDPAU: Added 2 output surfaces (total 4, max 4)
2012-04-25 14:52:14.224 [aac_latm @ 0x3b50b40]channel element 0.0 is not
allocated
2012-04-25 14:52:14.224 AFD Error: Unknown audio decoding error

If this is a known AAC problem that is solved in 0.25 then I can wait
till I upgrade to 0.25 before watching the movie, after all it's a
timeless classic.
Attachments: mms2-Italian-Job-audio-error.txt (1.67 KB)


jyavenard at gmail

Apr 25, 2012, 7:17 AM

Post #6 of 14 (1711 views)
Permalink
Re: MythTV 0.24-1.80 - No sound on HD TV recording [In reply to]

On 25 April 2012 23:33, PJR <pjrobinson [at] metronet> wrote:
> What did you use to chop off the beginning of the file?  I don't want to
> upgrade to 0.25 just yet; there seems a lot of issues with it and it's
> taken me some time to get 0.24 working on my h/w setup.  Is there a
> backport of the AAC audio updates to 0.24 or some such?

I doubt it will cleanly apply to 0.24
but here is the relevant changeset

https://github.com/MythTV/mythtv/commit/0840578348692387bcd86516487b019d841f5d16
_______________________________________________
mythtv-users mailing list
mythtv-users [at] mythtv
http://www.mythtv.org/mailman/listinfo/mythtv-users


jyavenard at gmail

Apr 25, 2012, 7:19 AM

Post #7 of 14 (1708 views)
Permalink
Re: MythTV 0.24-1.80 - No sound on HD TV recording [In reply to]

On 26 April 2012 00:14, PJR <pjrobinson [at] metronet> wrote:
> 2012-04-25 14:52:14.224 [aac_latm @ 0x3b50b40]channel element 0.0 is not
> allocated
> 2012-04-25 14:52:14.224 AFD Error: Unknown audio decoding error
>
> If this is a known AAC problem that is solved in 0.25 then I can wait
> till I upgrade to 0.25 before watching the movie, after all it's a
> timeless classic.

This is an entirely different problem alltogether...

it *may* be fixed in 0.25 thanks to the ffmpeg update.

however, it's not guaranteed.

you'll need to provide a sample of the file with the segment that
contains an issue.
Open a trac ticket: code.mythtv.org
_______________________________________________
mythtv-users mailing list
mythtv-users [at] mythtv
http://www.mythtv.org/mailman/listinfo/mythtv-users


J.Pilk at tesco

Apr 25, 2012, 7:43 AM

Post #8 of 14 (1706 views)
Permalink
Re: MythTV 0.24-1.80 - No sound on HD TV recording [In reply to]

On 25/04/12 14:33, PJR wrote:
>
>
> On 23/04/12 22:07, John Pilkington wrote:
>> On 23/04/12 19:51, PJR wrote:
>>> I recorded 'The Italian Job' from ITV HD the other day and when I play
>>> it there's sound from the TV broadcast prior to the movie but as soon as
>>> it starts there's no sound what so ever. This despite my AV amp
>>> (connected to the mythbox by HDMI) showing it's receiving 5.1 sound but
>>> no sound out of the speakers. All other HD TV recordings playback sound
>>> in the appropriate number of channels. Any thoughts as to what's gone
>>> wrong? Setting or un-setting Dolby, DTS etc in mythfrontend makes no
>>> difference. The TV decoder is a PC nano Stick 290e which has worked
>>> without fault.
>>
>> vlc hung up when asked to play my recording but was fine after I
>> chopped off the beginning. There isn't any sound anyway until the
>> initial pan down gets to the viaduct.
>>
>> ffmpeg -i on the chopped file says:
>> Stream #0:0[0x12d]: Video: h264 (High) ([27][0][0][0] / 0x001B),
>> yuv420p, 1440x1080 [SAR 4:3 DAR 16:9], 29.17 fps, 50 tbr, 90k tbn, 50 tbc
>> Stream #0:1[0x12e](eng): Audio: aac_latm ([17][0][0][0] / 0x0011),
>> 48000 Hz, 5.1, s16
>> Stream #0:2[0x132](eng): Audio: aac_latm ([17][0][0][0] / 0x0011),
>> 48000 Hz, 2 channels (FC), s16 (visual impaired)
>> Stream #0:3[0x131](eng): Subtitle: dvb_subtitle ([6][0][0][0] /
>> 0x0006)
>>

> What did you use to chop off the beginning of the file? I don't want to
> upgrade to 0.25 just yet; there seems a lot of issues with it and it's
> taken me some time to get 0.24 working on my h/w setup. Is there a
> backport of the AAC audio updates to 0.24 or some such?

I think the usual way of chopping bits out of a video is to use dd;
something like this:

dd if=/path/to/original.mpg of=sample.mpg bs=1M count=100

You can adjust --skip and --count to locate the bits you want. I'm
playing with a keyframe-linked cutter similar to mythcutprojectx that
should work with HD and a myth cutlist but it still needs more tlc.

I don't use HD often but I haven't noticed this problem in 0.24.3. OTOH
I would have recorded with 0.25 and then rsynced to 0.24, so maybe the
difficult bits had already been cut.

_______________________________________________
mythtv-users mailing list
mythtv-users [at] mythtv
http://www.mythtv.org/mailman/listinfo/mythtv-users


pjrobinson at metronet

Apr 25, 2012, 8:16 AM

Post #9 of 14 (1710 views)
Permalink
Re: MythTV 0.24-1.80 - No sound on HD TV recording [In reply to]

On 25/04/12 15:19, Jean-Yves Avenard wrote:
> On 26 April 2012 00:14, PJR <pjrobinson [at] metronet> wrote:
>> 2012-04-25 14:52:14.224 [aac_latm @ 0x3b50b40]channel element 0.0 is not
>> allocated
>> 2012-04-25 14:52:14.224 AFD Error: Unknown audio decoding error
>>
>> If this is a known AAC problem that is solved in 0.25 then I can wait
>> till I upgrade to 0.25 before watching the movie, after all it's a
>> timeless classic.
> This is an entirely different problem alltogether...
>
> it *may* be fixed in 0.25 thanks to the ffmpeg update.
>
> however, it's not guaranteed.
>
> you'll need to provide a sample of the file with the segment that
> contains an issue.
> Open a trac ticket: code.mythtv.org
> _______________________________________________
> mythtv-users mailing list
> mythtv-users [at] mythtv
> http://www.mythtv.org/mailman/listinfo/mythtv-users
>
After some more searching I found this on code.mythtv.org:

Ticket #10079 <http://code.mythtv.org/trac/ticket/10079> (closed Bug
Report - General: Fixed)


Problem Audio on Freeview HD BBC Channels. As soon as the audio
configuration change, further AAC/LATM decoding will fail with decoding
error messages.

This does sound like the problem I've experienced as the play-in is
2-ch, the movie 5.1ch (well more than 2-ch anyway). I'll investigate
further. The 'chopping off' solution may be deleting all the 2-ch
section thus when the resulting file is played it is all 5.1ch, ie
doesn't contain a change.


jyavenard at gmail

Apr 25, 2012, 8:19 AM

Post #10 of 14 (1711 views)
Permalink
Re: MythTV 0.24-1.80 - No sound on HD TV recording [In reply to]

On 26 April 2012 01:16, PJR <pjrobinson [at] metronet> wrote:
> After some more searching I found this on code.mythtv.org:
>
> Ticket #10079 (closed Bug Report - General: Fixed)

that ticket is in fixes/0.24 for around 6 months
_______________________________________________
mythtv-users mailing list
mythtv-users [at] mythtv
http://www.mythtv.org/mailman/listinfo/mythtv-users


jyavenard at gmail

Apr 25, 2012, 8:20 AM

Post #11 of 14 (1706 views)
Permalink
Re: MythTV 0.24-1.80 - No sound on HD TV recording [In reply to]

On 26 April 2012 01:19, Jean-Yves Avenard <jyavenard [at] gmail> wrote:
> On 26 April 2012 01:16, PJR <pjrobinson [at] metronet> wrote:
>> After some more searching I found this on code.mythtv.org:
>>
>> Ticket #10079 (closed Bug Report - General: Fixed)
>
> that ticket is in fixes/0.24 for around 6 months

forgot to add that the behaviour in decoding was that it kept changing
from 2 -> 6 channels, it didn't give a "decoding" error like here.
Which normally would indicate corrupted data. It may be a coincidence
and you got a reception problem at that exact moment
_______________________________________________
mythtv-users mailing list
mythtv-users [at] mythtv
http://www.mythtv.org/mailman/listinfo/mythtv-users


pjrobinson at metronet

Apr 25, 2012, 1:57 PM

Post #12 of 14 (1709 views)
Permalink
Re: MythTV 0.24-1.80 - No sound on HD TV recording [In reply to]

On 25/04/12 16:20, Jean-Yves Avenard wrote:
> On 26 April 2012 01:19, Jean-Yves Avenard <jyavenard [at] gmail> wrote:
>> On 26 April 2012 01:16, PJR <pjrobinson [at] metronet> wrote:
>>> After some more searching I found this on code.mythtv.org:
>>>
>>> Ticket #10079 (closed Bug Report - General: Fixed)
>> that ticket is in fixes/0.24 for around 6 months
> forgot to add that the behaviour in decoding was that it kept changing
> from 2 -> 6 channels, it didn't give a "decoding" error like here.
> Which normally would indicate corrupted data. It may be a coincidence
> and you got a reception problem at that exact moment
> _______________________________________________
> mythtv-users mailing list
> mythtv-users [at] mythtv
> http://www.mythtv.org/mailman/listinfo/mythtv-users
>
If I run ffmpeg -i the_movie_file.mpg

I get:

-----------------------------------------------
[h264 @ 0x8ff4580] decode_slice_header error
[h264 @ 0x8ff4580] non-existing PPS 0 referenced
[h264 @ 0x8ff4580] decode_slice_header error
[h264 @ 0x8ff4580] non-existing PPS 0 referenced
[h264 @ 0x8ff4580] decode_slice_header error
[h264 @ 0x8ff4580] no frame!
[h264 @ 0x8ff4580] mmco: unref short failure
Last message repeated 1 times
[mpegts @ 0x8fef2a0] max_analyze_duration reached

Seems stream 0 codec frame rate differs from container frame rate: 50.00
(50/1) -> 50.00 (50/1)
Input #0, mpegts, from '1052_20120421182000.mpg':
Duration: 01:49:53.87, start: 39836.448300, bitrate: 5681 kb/s
Program 1
Stream #0.0[0x12d]: Video: h264 (High), yuv420p, 1440x1080 [PAR 4:3
DAR 16:9], 46.69 fps, 50 tbr, 90k tbn, 50 tbc
Stream #0.1[0x12e](eng): Audio: aac_latm, 48000 Hz, stereo, s16
Stream #0.2[0x132](eng): Audio: aac_latm, 48000 Hz, 2 channels (FC),
s16 (visual impaired)
Stream #0.3[0x131](eng): Subtitle: dvbsub
At least one output file must be specified
-----------------------------------------------

Does this indicate the file is corrupt? As the file is a .mpg has it
been transcoded by myth if so is it a transcoding error?
My concern now is that this might happen again on other 5.1ch movies
recorded from HD TV.
_______________________________________________
mythtv-users mailing list
mythtv-users [at] mythtv
http://www.mythtv.org/mailman/listinfo/mythtv-users


jyavenard at gmail

Apr 25, 2012, 4:35 PM

Post #13 of 14 (1697 views)
Permalink
Re: MythTV 0.24-1.80 - No sound on HD TV recording [In reply to]

On 26 April 2012 06:57, PJR <pjrobinson [at] metronet> wrote:
> -----------------------------------------------
> [h264 @ 0x8ff4580] decode_slice_header error
> [h264 @ 0x8ff4580] non-existing PPS 0 referenced
> [h264 @ 0x8ff4580] decode_slice_header error
> [h264 @ 0x8ff4580] non-existing PPS 0 referenced
> [h264 @ 0x8ff4580] decode_slice_header error
> [h264 @ 0x8ff4580] no frame!
> [h264 @ 0x8ff4580] mmco: unref short failure
>    Last message repeated 1 times
> [mpegts @ 0x8fef2a0] max_analyze_duration reached
>
> Seems stream 0 codec frame rate differs from container frame rate: 50.00
> (50/1) -> 50.00 (50/1)
> Input #0, mpegts, from '1052_20120421182000.mpg':
>  Duration: 01:49:53.87, start: 39836.448300, bitrate: 5681 kb/s
>  Program 1
>    Stream #0.0[0x12d]: Video: h264 (High), yuv420p, 1440x1080 [PAR 4:3
> DAR 16:9], 46.69 fps, 50 tbr, 90k tbn, 50 tbc
>    Stream #0.1[0x12e](eng): Audio: aac_latm, 48000 Hz, stereo, s16
>    Stream #0.2[0x132](eng): Audio: aac_latm, 48000 Hz, 2 channels (FC),
> s16 (visual impaired)
>    Stream #0.3[0x131](eng): Subtitle: dvbsub
> At least one output file must be specified
> -----------------------------------------------
>
> Does this indicate the file is corrupt?  As the file is a .mpg has it
> been transcoded by myth if so is it a transcoding error?
> My concern now is that this might happen again on other 5.1ch movies
> recorded from HD TV.

mythtv doesn't do anything to the stream received unless you configure to do so.
That the audio is still aac_latm, I would guess that no process has
been done on that file.

If a recent version of ffmpeg doesn't play that file, you got no
chance for myth to play it, nor anything other playback software for
that matter. They pretty much all use ffmpeg internally.

It could be that the file is corrupted, or that it's something broken in ffmpeg.

if it was an issue you saw with other recording it would indicate the
later, if it's a one-off, it's most certainly is the first.
_______________________________________________
mythtv-users mailing list
mythtv-users [at] mythtv
http://www.mythtv.org/mailman/listinfo/mythtv-users


pjrobinson at metronet

Apr 25, 2012, 11:54 PM

Post #14 of 14 (1692 views)
Permalink
Re: MythTV 0.24-1.80 - No sound on HD TV recording [In reply to]

On 26/04/12 00:35, Jean-Yves Avenard wrote:
> On 26 April 2012 06:57, PJR <pjrobinson [at] metronet> wrote:
>> -----------------------------------------------
>> [h264 @ 0x8ff4580] decode_slice_header error
>> [h264 @ 0x8ff4580] non-existing PPS 0 referenced
>> [h264 @ 0x8ff4580] decode_slice_header error
>> [h264 @ 0x8ff4580] non-existing PPS 0 referenced
>> [h264 @ 0x8ff4580] decode_slice_header error
>> [h264 @ 0x8ff4580] no frame!
>> [h264 @ 0x8ff4580] mmco: unref short failure
>> Last message repeated 1 times
>> [mpegts @ 0x8fef2a0] max_analyze_duration reached
>>
>> Seems stream 0 codec frame rate differs from container frame rate: 50.00
>> (50/1) -> 50.00 (50/1)
>> Input #0, mpegts, from '1052_20120421182000.mpg':
>> Duration: 01:49:53.87, start: 39836.448300, bitrate: 5681 kb/s
>> Program 1
>> Stream #0.0[0x12d]: Video: h264 (High), yuv420p, 1440x1080 [PAR 4:3
>> DAR 16:9], 46.69 fps, 50 tbr, 90k tbn, 50 tbc
>> Stream #0.1[0x12e](eng): Audio: aac_latm, 48000 Hz, stereo, s16
>> Stream #0.2[0x132](eng): Audio: aac_latm, 48000 Hz, 2 channels (FC),
>> s16 (visual impaired)
>> Stream #0.3[0x131](eng): Subtitle: dvbsub
>> At least one output file must be specified
>> -----------------------------------------------
>>
>> Does this indicate the file is corrupt? As the file is a .mpg has it
>> been transcoded by myth if so is it a transcoding error?
>> My concern now is that this might happen again on other 5.1ch movies
>> recorded from HD TV.
> mythtv doesn't do anything to the stream received unless you configure to do so.
> That the audio is still aac_latm, I would guess that no process has
> been done on that file.
>
> If a recent version of ffmpeg doesn't play that file, you got no
> chance for myth to play it, nor anything other playback software for
> that matter. They pretty much all use ffmpeg internally.
>
> It could be that the file is corrupted, or that it's something broken in ffmpeg.
>
> if it was an issue you saw with other recording it would indicate the
> later, if it's a one-off, it's most certainly is the first.
> _______________________________________________
> mythtv-users mailing list
> mythtv-users [at] mythtv
> http://www.mythtv.org/mailman/listinfo/mythtv-users
>
Ok understood. I'll try and record another HD movie from the same
channel and see if it has the same problem, if not I guess it's a one
off error during the recording.
_______________________________________________
mythtv-users mailing list
mythtv-users [at] mythtv
http://www.mythtv.org/mailman/listinfo/mythtv-users

MythTV users RSS feed   Index | Next | Previous | View Threaded
 
 


Interested in having your list archived? Contact Gossamer Threads
 
  Web Applications & Managed Hosting Powered by Gossamer Threads Inc.